osu file format v14

[General]
AudioFilename: Endless Story.mp3
AudioLeadIn: 1500
PreviewTime: 56949
Countdown: 0
SampleSet: None
StackLeniency: 0.7
Mode: 3
LetterboxInBreaks: 0
WidescreenStoryboard: 1

[Editor]
DistanceSpacing: 0.8
BeatDivisor: 4
GridSize: 32
TimelineZoom: 2

[Metadata]
Title:Anime OP/ED Fantasy
TitleUnicode:Anime OP/ED Fantasy
Artist:Various Artist
ArtistUnicode:Various Artist
Creator:bima fajar
Version:Endless Story [4k MX]
Source:
Tags:log horizon log horizon 2 bleach 11eyes black bullet C3 shikyubu romeo x juliet naruto attack on titan chaos dragon sekiryuu sen'eki accel world mahouka koukou no rettousei
BeatmapID:828880
BeatmapSetID:378584

[Difficulty]
HPDrainRate:8
CircleSize:4
OverallDifficulty:8
ApproachRate:5
SliderMultiplier:1.4
SliderTickRate:1

[Events]
//Background and Video events
0,0,"c3fear.jpg",0,0
//Break Periods
//Storyboard Layer 0 (Background)
//Storyboard Layer 1 (Fail)
//Storyboard Layer 2 (Pass)
//Storyboard Layer 3 (Foreground)
//Storyboard Sound Samples

[TimingPoints]
0,759.493670886076,4,2,0,100,1,0
13549,320.855614973262,4,2,0,100,1,0

[HitObjects]
64,192,189,5,0,0:0:0:0:
192,192,569,1,0,0:0:0:0:
320,192,949,128,0,1708:0:0:0:0:
448,192,1708,128,0,2468:0:0:0:0:
320,192,2468,128,0,3227:0:0:0:0:
192,192,3227,128,0,3607:0:0:0:0:
448,192,3607,128,0,3987:0:0:0:0:
64,192,3987,128,0,4367:0:0:0:0:
320,192,4367,128,0,4746:0:0:0:0:
192,192,4746,128,0,5126:0:0:0:0:
448,192,5126,128,0,5506:0:0:0:0:
320,192,5506,128,0,6265:0:0:0:0:
192,192,6265,128,0,6645:0:0:0:0:
448,192,6645,128,0,7025:0:0:0:0:
64,192,7025,128,0,7784:0:0:0:0:
192,192,7025,1,0,0:0:0:0:
320,192,7784,128,0,8544:0:0:0:0:
192,192,8544,128,0,9303:0:0:0:0:
448,192,9303,128,0,9683:0:0:0:0:
320,192,9683,128,0,10063:0:0:0:0:
64,192,10063,128,0,10443:0:0:0:0:
448,192,10443,128,0,10822:0:0:0:0:
192,192,10822,128,0,11202:0:0:0:0:
320,192,11202,128,0,11582:0:0:0:0:
192,192,11582,128,0,13481:0:0:0:0:
320,192,13549,1,0,0:0:0:0:
448,192,13549,1,0,0:0:0:0:
320,192,13629,1,0,0:0:0:0:
448,192,13629,1,0,0:0:0:0:
320,192,13709,1,0,0:0:0:0:
448,192,13709,1,0,0:0:0:0:
320,192,13789,1,0,0:0:0:0:
448,192,13789,1,0,0:0:0:0:
320,192,13869,1,0,0:0:0:0:
448,192,13869,1,0,0:0:0:0:
320,192,13950,1,0,0:0:0:0:
448,192,13950,1,0,0:0:0:0:
448,192,14030,1,0,0:0:0:0:
320,192,14030,1,0,0:0:0:0:
320,192,14110,1,0,0:0:0:0:
448,192,14110,1,0,0:0:0:0:
64,192,14270,128,0,14511:0:0:0:0:
192,192,14511,1,0,0:0:0:0:
320,192,14511,1,0,0:0:0:0:
448,192,14832,1,0,0:0:0:0:
448,192,14992,1,0,0:0:0:0:
192,192,15153,1,0,0:0:0:0:
320,192,15153,1,0,0:0:0:0:
64,192,15474,1,0,0:0:0:0:
192,192,15714,1,0,0:0:0:0:
320,192,15794,1,0,0:0:0:0:
320,192,16035,1,0,0:0:0:0:
448,192,16196,1,0,0:0:0:0:
320,192,16276,1,0,0:0:0:0:
192,192,16356,1,0,0:0:0:0:
64,192,16516,1,0,0:0:0:0:
192,192,16677,1,0,0:0:0:0:
320,192,16677,1,0,0:0:0:0:
320,192,16998,1,0,0:0:0:0:
448,192,17319,1,0,0:0:0:0:
192,192,17319,1,0,0:0:0:0:
320,192,17399,1,0,0:0:0:0:
64,192,17559,1,0,0:0:0:0:
192,192,17720,1,0,0:0:0:0:
320,192,17720,1,0,0:0:0:0:
64,192,18040,1,0,0:0:0:0:
448,192,18040,1,0,0:0:0:0:
320,192,18361,1,0,0:0:0:0:
448,192,18682,1,0,0:0:0:0:
192,192,18682,1,0,0:0:0:0:
320,192,18843,1,0,0:0:0:0:
64,192,19003,1,0,0:0:0:0:
448,192,19003,1,0,0:0:0:0:
320,192,19083,1,0,0:0:0:0:
192,192,19083,1,0,0:0:0:0:
448,192,19244,1,0,0:0:0:0:
64,192,19244,1,0,0:0:0:0:
320,192,19324,1,0,0:0:0:0:
192,192,19324,1,0,0:0:0:0:
320,192,19645,1,0,0:0:0:0:
64,192,19645,1,0,0:0:0:0:
320,192,19966,1,0,0:0:0:0:
64,192,19966,1,0,0:0:0:0:
320,192,20126,1,0,0:0:0:0:
192,192,20126,1,0,0:0:0:0:
448,192,20286,1,0,0:0:0:0:
192,192,20367,1,0,0:0:0:0:
320,192,20447,1,0,0:0:0:0:
64,192,20527,1,0,0:0:0:0:
448,192,20527,1,0,0:0:0:0:
320,192,20607,1,0,0:0:0:0:
192,192,20607,1,0,0:0:0:0:
320,192,20928,1,0,0:0:0:0:
64,192,20928,1,0,0:0:0:0:
448,192,21249,1,0,0:0:0:0:
64,192,21249,1,0,0:0:0:0:
320,192,21329,1,0,0:0:0:0:
192,192,21490,1,0,0:0:0:0:
320,192,21570,1,0,0:0:0:0:
64,192,21650,1,0,0:0:0:0:
320,192,21730,1,0,0:0:0:0:
64,192,21891,1,0,0:0:0:0:
320,192,21971,1,0,0:0:0:0:
192,192,21971,1,0,0:0:0:0:
64,192,22131,1,0,0:0:0:0:
320,192,22212,1,0,0:0:0:0:
192,192,22212,1,0,0:0:0:0:
448,192,22292,1,0,0:0:0:0:
320,192,22452,1,0,0:0:0:0:
192,192,22532,1,0,0:0:0:0:
448,192,22613,1,0,0:0:0:0:
320,192,22693,1,0,0:0:0:0:
192,192,22773,1,0,0:0:0:0:
448,192,22853,1,0,0:0:0:0:
64,192,22853,1,0,0:0:0:0:
320,192,22934,1,0,0:0:0:0:
448,192,23094,1,0,0:0:0:0:
320,192,23094,1,0,0:0:0:0:
192,192,23094,1,0,0:0:0:0:
64,192,23335,1,0,0:0:0:0:
320,192,23495,1,0,0:0:0:0:
448,192,23495,1,0,0:0:0:0:
192,192,23655,1,0,0:0:0:0:
64,192,23816,1,0,0:0:0:0:
448,192,23816,1,0,0:0:0:0:
320,192,23816,1,0,0:0:0:0:
192,192,23976,1,0,0:0:0:0:
448,192,23976,1,0,0:0:0:0:
320,192,24057,1,0,0:0:0:0:
64,192,24057,1,0,0:0:0:0:
448,192,24137,1,0,0:0:0:0:
192,192,24217,1,0,0:0:0:0:
320,192,24217,1,0,0:0:0:0:
64,192,24297,1,0,0:0:0:0:
448,192,24377,1,0,0:0:0:0:
320,192,24377,1,0,0:0:0:0:
192,192,24458,1,0,0:0:0:0:
64,192,24538,1,0,0:0:0:0:
448,192,24538,1,0,0:0:0:0:
320,192,24778,1,0,0:0:0:0:
64,192,24859,1,0,0:0:0:0:
320,192,24939,1,0,0:0:0:0:
192,192,25099,1,0,0:0:0:0:
320,192,25099,1,0,0:0:0:0:
448,192,25180,1,0,0:0:0:0:
192,192,25340,1,0,0:0:0:0:
320,192,25340,1,0,0:0:0:0:
320,192,25500,1,0,0:0:0:0:
64,192,25500,1,0,0:0:0:0:
320,192,25661,1,0,0:0:0:0:
64,192,25741,1,0,0:0:0:0:
448,192,25821,1,0,0:0:0:0:
64,192,25901,1,0,0:0:0:0:
320,192,25982,1,0,0:0:0:0:
192,192,26142,1,0,0:0:0:0:
320,192,26222,1,0,0:0:0:0:
192,192,26303,1,0,0:0:0:0:
320,192,26383,1,0,0:0:0:0:
448,192,26383,1,0,0:0:0:0:
320,192,26543,1,0,0:0:0:0:
64,192,26543,1,0,0:0:0:0:
448,192,26543,1,0,0:0:0:0:
320,192,26704,1,0,0:0:0:0:
448,192,26704,1,0,0:0:0:0:
64,192,26784,1,0,0:0:0:0:
320,192,26864,1,0,0:0:0:0:
448,192,26864,1,0,0:0:0:0:
64,192,26944,1,0,0:0:0:0:
448,192,27024,1,0,0:0:0:0:
192,192,27105,1,0,0:0:0:0:
448,192,27185,1,0,0:0:0:0:
192,192,27345,1,0,0:0:0:0:
320,192,27426,1,0,0:0:0:0:
448,192,27586,1,0,0:0:0:0:
64,192,27586,1,0,0:0:0:0:
320,192,27746,1,0,0:0:0:0:
64,192,27827,1,0,0:0:0:0:
448,192,27907,1,0,0:0:0:0:
320,192,27907,1,0,0:0:0:0:
192,192,27987,1,0,0:0:0:0:
448,192,28067,1,0,0:0:0:0:
320,192,28067,1,0,0:0:0:0:
192,192,28147,1,0,0:0:0:0:
448,192,28228,1,0,0:0:0:0:
192,192,28308,1,0,0:0:0:0:
320,192,28388,1,0,0:0:0:0:
64,192,28549,1,0,0:0:0:0:
448,192,28549,1,0,0:0:0:0:
320,192,28549,1,0,0:0:0:0:
192,192,28709,1,0,0:0:0:0:
448,192,28709,1,0,0:0:0:0:
320,192,28789,1,0,0:0:0:0:
448,192,28950,1,0,0:0:0:0:
64,192,28950,1,0,0:0:0:0:
320,192,29110,1,0,0:0:0:0:
192,192,29110,1,0,0:0:0:0:
64,192,29190,1,0,0:0:0:0:
448,192,29270,1,0,0:0:0:0:
320,192,29270,1,0,0:0:0:0:
192,192,29270,1,0,0:0:0:0:
448,192,29431,1,0,0:0:0:0:
320,192,29431,1,0,0:0:0:0:
64,192,29511,1,0,0:0:0:0:
448,192,29591,1,0,0:0:0:0:
64,192,29591,128,0,32158:0:0:0:0:
320,192,29671,1,0,0:0:0:0:
448,192,29752,1,0,0:0:0:0:
320,192,29832,1,0,0:0:0:0:
192,192,29912,1,0,0:0:0:0:
448,192,29992,1,0,0:0:0:0:
320,192,29992,1,0,0:0:0:0:
448,192,30153,1,0,0:0:0:0:
192,192,30153,1,0,0:0:0:0:
320,192,30153,1,0,0:0:0:0:
448,192,30313,1,0,0:0:0:0:
320,192,30313,1,0,0:0:0:0:
192,192,30393,1,0,0:0:0:0:
448,192,30474,1,0,0:0:0:0:
320,192,30474,1,0,0:0:0:0:
192,192,30554,1,0,0:0:0:0:
448,192,30634,1,0,0:0:0:0:
320,192,30714,1,0,0:0:0:0:
192,192,30794,1,0,0:0:0:0:
448,192,30875,1,0,0:0:0:0:
448,192,31035,1,0,0:0:0:0:
192,192,31035,1,0,0:0:0:0:
320,192,31196,1,0,0:0:0:0:
192,192,31276,1,0,0:0:0:0:
320,192,31356,1,0,0:0:0:0:
192,192,31516,1,0,0:0:0:0:
448,192,31516,1,0,0:0:0:0:
320,192,31677,1,0,0:0:0:0:
192,192,31677,1,0,0:0:0:0:
448,192,31837,1,0,0:0:0:0:
192,192,31917,1,0,0:0:0:0:
320,192,31998,1,0,0:0:0:0:
192,192,32158,1,0,0:0:0:0:
448,192,32158,128,0,34805:0:0:0:0:
320,192,32399,1,0,0:0:0:0:
192,192,32399,1,0,0:0:0:0:
192,192,32800,1,0,0:0:0:0:
320,192,32800,1,0,0:0:0:0:
64,192,33121,1,0,0:0:0:0:
320,192,33121,1,0,0:0:0:0:
192,192,33281,1,0,0:0:0:0:
320,192,33361,1,0,0:0:0:0:
64,192,33522,1,0,0:0:0:0:
320,192,33602,1,0,0:0:0:0:
192,192,33682,1,0,0:0:0:0:
320,192,33762,1,0,0:0:0:0:
64,192,33843,1,0,0:0:0:0:
64,192,34083,1,0,0:0:0:0:
320,192,34083,1,0,0:0:0:0:
192,192,34163,1,0,0:0:0:0:
320,192,34244,1,0,0:0:0:0:
64,192,34324,1,0,0:0:0:0:
320,192,34404,1,0,0:0:0:0:
192,192,34484,1,0,0:0:0:0:
64,192,34565,1,0,0:0:0:0:
320,192,34565,1,0,0:0:0:0:
192,192,34645,1,0,0:0:0:0:
320,192,34805,1,0,0:0:0:0:
64,192,34805,128,0,35286:0:0:0:0:
320,192,34966,1,0,0:0:0:0:
192,192,35046,1,0,0:0:0:0:
448,192,35126,1,0,0:0:0:0:
192,192,35286,1,0,0:0:0:0:
320,192,35367,1,0,0:0:0:0:
448,192,35367,1,0,0:0:0:0:
192,192,35367,128,0,35848:0:0:0:0:
448,192,35527,1,0,0:0:0:0:
320,192,35688,1,0,0:0:0:0:
448,192,35848,1,0,0:0:0:0:
320,192,35928,1,0,0:0:0:0:
192,192,35928,1,0,0:0:0:0:
448,192,35928,128,0,38575:0:0:0:0:
192,192,36249,1,0,0:0:0:0:
320,192,36249,1,0,0:0:0:0:
320,192,36409,1,0,0:0:0:0:
192,192,36490,1,0,0:0:0:0:
192,192,36730,1,0,0:0:0:0:
320,192,36811,1,0,0:0:0:0:
192,192,36971,1,0,0:0:0:0:
320,192,37051,1,0,0:0:0:0:
192,192,37212,1,0,0:0:0:0:
320,192,37292,1,0,0:0:0:0:
64,192,37372,1,0,0:0:0:0:
192,192,37452,1,0,0:0:0:0:
320,192,37613,1,0,0:0:0:0:
64,192,37613,1,0,0:0:0:0:
192,192,37773,1,0,0:0:0:0:
320,192,37773,1,0,0:0:0:0:
64,192,37934,1,0,0:0:0:0:
320,192,38014,1,0,0:0:0:0:
192,192,38094,1,0,0:0:0:0:
320,192,38254,1,0,0:0:0:0:
192,192,38335,1,0,0:0:0:0:
320,192,38575,1,0,0:0:0:0:
64,192,38575,128,0,39137:0:0:0:0:
448,192,38816,1,0,0:0:0:0:
448,192,39137,1,0,0:0:0:0:
192,192,39137,128,0,39778:0:0:0:0:
320,192,39377,1,0,0:0:0:0:
448,192,39458,1,0,0:0:0:0:
320,192,39618,1,0,0:0:0:0:
448,192,39778,128,0,42426:0:0:0:0:
320,192,39859,1,0,0:0:0:0:
192,192,39939,1,0,0:0:0:0:
320,192,40180,1,0,0:0:0:0:
320,192,40500,1,0,0:0:0:0:
192,192,40500,1,0,0:0:0:0:
64,192,40821,1,0,0:0:0:0:
320,192,40901,1,0,0:0:0:0:
192,192,40982,1,0,0:0:0:0:
320,192,41142,1,0,0:0:0:0:
64,192,41142,1,0,0:0:0:0:
192,192,41463,1,0,0:0:0:0:
64,192,41784,1,0,0:0:0:0:
192,192,42105,1,0,0:0:0:0:
320,192,42426,1,0,0:0:0:0:
64,192,42426,128,0,42746:0:0:0:0:
448,192,42746,128,0,43067:0:0:0:0:
192,192,42746,128,0,43067:0:0:0:0:
64,192,43067,128,0,43388:0:0:0:0:
320,192,43067,1,0,0:0:0:0:
192,192,43388,1,0,0:0:0:0:
320,192,43388,1,0,0:0:0:0:
448,192,43709,1,0,0:0:0:0:
320,192,43709,1,0,0:0:0:0:
64,192,43709,128,0,44030:0:0:0:0:
192,192,44030,1,0,0:0:0:0:
448,192,44030,1,0,0:0:0:0:
64,192,44351,1,0,0:0:0:0:
320,192,44351,1,0,0:0:0:0:
448,192,44351,1,0,0:0:0:0:
192,192,44511,1,0,0:0:0:0:
448,192,44511,1,0,0:0:0:0:
320,192,44511,1,0,0:0:0:0:
64,192,44511,1,0,0:0:0:0:
448,192,44671,1,0,0:0:0:0:
64,192,44671,1,0,0:0:0:0:
320,192,44671,1,0,0:0:0:0:
192,192,45073,1,0,0:0:0:0:
448,192,45073,1,0,0:0:0:0:
320,192,45313,1,0,0:0:0:0:
320,192,45474,1,0,0:0:0:0:
448,192,45634,1,0,0:0:0:0:
192,192,45634,1,0,0:0:0:0:
320,192,45955,1,0,0:0:0:0:
320,192,46115,1,0,0:0:0:0:
64,192,46276,1,0,0:0:0:0:
320,192,46356,1,0,0:0:0:0:
448,192,46516,1,0,0:0:0:0:
320,192,46757,1,0,0:0:0:0:
192,192,46757,1,0,0:0:0:0:
448,192,46917,1,0,0:0:0:0:
320,192,46998,1,0,0:0:0:0:
192,192,47158,1,0,0:0:0:0:
64,192,47238,1,0,0:0:0:0:
192,192,47399,1,0,0:0:0:0:
320,192,47479,1,0,0:0:0:0:
448,192,47639,1,0,0:0:0:0:
64,192,47639,1,0,0:0:0:0:
192,192,47720,1,0,0:0:0:0:
320,192,47720,1,0,0:0:0:0:
448,192,47960,1,0,0:0:0:0:
320,192,48040,1,0,0:0:0:0:
320,192,48281,1,0,0:0:0:0:
64,192,48281,1,0,0:0:0:0:
448,192,48281,1,0,0:0:0:0:
192,192,48281,1,0,0:0:0:0:
448,192,48602,1,0,0:0:0:0:
320,192,48602,1,0,0:0:0:0:
64,192,48762,1,0,0:0:0:0:
448,192,48923,1,0,0:0:0:0:
320,192,49003,1,0,0:0:0:0:
192,192,49163,1,0,0:0:0:0:
448,192,49324,1,0,0:0:0:0:
320,192,49404,1,0,0:0:0:0:
192,192,49484,1,0,0:0:0:0:
448,192,49645,1,0,0:0:0:0:
64,192,49645,1,0,0:0:0:0:
320,192,49645,1,0,0:0:0:0:
192,192,49805,1,0,0:0:0:0:
320,192,49805,1,0,0:0:0:0:
448,192,49805,1,0,0:0:0:0:
64,192,49885,1,0,0:0:0:0:
448,192,49966,1,0,0:0:0:0:
192,192,50046,1,0,0:0:0:0:
320,192,50206,1,0,0:0:0:0:
448,192,50206,1,0,0:0:0:0:
64,192,50367,1,0,0:0:0:0:
448,192,50447,1,0,0:0:0:0:
320,192,50527,1,0,0:0:0:0:
448,192,50688,1,0,0:0:0:0:
64,192,50768,1,0,0:0:0:0:
448,192,50768,1,0,0:0:0:0:
320,192,50768,1,0,0:0:0:0:
448,192,51089,1,0,0:0:0:0:
320,192,51089,1,0,0:0:0:0:
192,192,51169,1,0,0:0:0:0:
448,192,51329,1,0,0:0:0:0:
320,192,51329,1,0,0:0:0:0:
192,192,51490,1,0,0:0:0:0:
448,192,51570,1,0,0:0:0:0:
320,192,51650,1,0,0:0:0:0:
192,192,51811,1,0,0:0:0:0:
448,192,51891,1,0,0:0:0:0:
320,192,51891,1,0,0:0:0:0:
448,192,52131,1,0,0:0:0:0:
320,192,52131,1,0,0:0:0:0:
64,192,52131,1,0,0:0:0:0:
192,192,52131,1,0,0:0:0:0:
320,192,52292,1,0,0:0:0:0:
448,192,52292,1,0,0:0:0:0:
64,192,52292,1,0,0:0:0:0:
192,192,52372,1,0,0:0:0:0:
320,192,52452,1,0,0:0:0:0:
448,192,52452,1,0,0:0:0:0:
64,192,52532,1,0,0:0:0:0:
192,192,52532,1,0,0:0:0:0:
320,192,52613,1,0,0:0:0:0:
448,192,52613,1,0,0:0:0:0:
64,192,52693,1,0,0:0:0:0:
192,192,52693,1,0,0:0:0:0:
320,192,52773,1,0,0:0:0:0:
448,192,52773,1,0,0:0:0:0:
64,192,53014,1,0,0:0:0:0:
448,192,53094,1,0,0:0:0:0:
320,192,53174,1,0,0:0:0:0:
192,192,53335,1,0,0:0:0:0:
448,192,53495,1,0,0:0:0:0:
320,192,53575,1,0,0:0:0:0:
192,192,53736,1,0,0:0:0:0:
448,192,54057,1,0,0:0:0:0:
320,192,54057,1,0,0:0:0:0:
64,192,54297,1,0,0:0:0:0:
192,192,54458,1,0,0:0:0:0:
320,192,54698,1,0,0:0:0:0:
192,192,54939,1,0,0:0:0:0:
64,192,55260,128,0,55500:0:0:0:0:
192,192,55260,128,0,55500:0:0:0:0:
192,192,55581,128,0,55821:0:0:0:0:
320,192,55581,128,0,55821:0:0:0:0:
320,192,55901,128,0,56142:0:0:0:0:
448,192,55901,128,0,56142:0:0:0:0:
320,192,56222,128,0,56463:0:0:0:0:
192,192,56222,128,0,56463:0:0:0:0:
64,192,56543,1,0,0:0:0:0:
448,192,56543,1,0,0:0:0:0:
192,192,56623,1,0,0:0:0:0:
320,192,56623,1,0,0:0:0:0:
192,192,56704,1,0,0:0:0:0:
320,192,56704,1,0,0:0:0:0:
192,192,56784,1,0,0:0:0:0:
320,192,56784,1,0,0:0:0:0:
192,192,56864,1,0,0:0:0:0:
320,192,56864,1,0,0:0:0:0:
64,192,57185,128,0,57827:0:0:0:0:
192,192,57506,128,0,57827:0:0:0:0:
320,192,57827,1,0,0:0:0:0:
448,192,57987,1,0,0:0:0:0:
320,192,58067,1,0,0:0:0:0:
192,192,58147,1,0,0:0:0:0:
448,192,58228,1,0,0:0:0:0:
320,192,58388,1,0,0:0:0:0:
64,192,58468,1,0,0:0:0:0:
320,192,58629,1,0,0:0:0:0:
192,192,58789,1,0,0:0:0:0:
448,192,59110,1,0,0:0:0:0:
64,192,59110,128,0,60393:0:0:0:0:
320,192,59431,1,0,0:0:0:0:
448,192,59591,1,0,0:0:0:0:
320,192,59752,1,0,0:0:0:0:
192,192,59752,1,0,0:0:0:0:
448,192,59912,1,0,0:0:0:0:
320,192,59992,1,0,0:0:0:0:
448,192,60153,1,0,0:0:0:0:
192,192,60393,1,0,0:0:0:0:
448,192,60393,128,0,60714:0:0:0:0:
192,192,60714,1,0,0:0:0:0:
320,192,60714,128,0,61115:0:0:0:0:
64,192,61035,128,0,61356:0:0:0:0:
448,192,61035,128,0,61356:0:0:0:0:
320,192,61356,128,0,61677:0:0:0:0:
192,192,61356,128,0,61677:0:0:0:0:
448,192,61677,128,0,61998:0:0:0:0:
64,192,61677,128,0,62399:0:0:0:0:
320,192,61998,128,0,62399:0:0:0:0:
448,192,62319,128,0,62720:0:0:0:0:
192,192,62399,128,0,62720:0:0:0:0:
320,192,62639,128,0,63040:0:0:0:0:
192,192,63040,1,0,0:0:0:0:
448,192,63040,1,0,0:0:0:0:
320,192,63281,1,0,0:0:0:0:
64,192,63361,1,0,0:0:0:0:
192,192,63682,1,0,0:0:0:0:
320,192,63682,1,0,0:0:0:0:
64,192,63762,1,0,0:0:0:0:
448,192,63762,1,0,0:0:0:0:
192,192,63923,1,0,0:0:0:0:
320,192,64003,1,0,0:0:0:0:
64,192,64244,1,0,0:0:0:0:
448,192,64244,1,0,0:0:0:0:
320,192,64565,1,0,0:0:0:0:
192,192,64645,1,0,0:0:0:0:
448,192,64725,1,0,0:0:0:0:
320,192,64885,1,0,0:0:0:0:
192,192,64966,1,0,0:0:0:0:
448,192,65046,1,0,0:0:0:0:
64,192,65206,1,0,0:0:0:0:
320,192,65206,1,0,0:0:0:0:
320,192,65527,128,0,65848:0:0:0:0:
64,192,65527,128,0,65848:0:0:0:0:
192,192,65848,1,0,0:0:0:0:
448,192,65848,128,0,66169:0:0:0:0:
320,192,66169,1,0,0:0:0:0:
64,192,66169,1,0,0:0:0:0:
448,192,66409,1,0,0:0:0:0:
192,192,66409,1,0,0:0:0:0:
320,192,66490,1,0,0:0:0:0:
64,192,66570,1,0,0:0:0:0:
192,192,66650,1,0,0:0:0:0:
448,192,66650,1,0,0:0:0:0:
320,192,66650,1,0,0:0:0:0:
64,192,66891,1,0,0:0:0:0:
448,192,66971,1,0,0:0:0:0:
192,192,67051,1,0,0:0:0:0:
320,192,67051,1,0,0:0:0:0:
448,192,67131,1,0,0:0:0:0:
64,192,67372,1,0,0:0:0:0:
192,192,67452,1,0,0:0:0:0:
320,192,67452,1,0,0:0:0:0:
448,192,67613,1,0,0:0:0:0:
64,192,67693,1,0,0:0:0:0:
320,192,67693,1,0,0:0:0:0:
192,192,67773,1,0,0:0:0:0:
448,192,67853,1,0,0:0:0:0:
64,192,67853,1,0,0:0:0:0:
320,192,67934,1,0,0:0:0:0:
192,192,68014,1,0,0:0:0:0:
448,192,68014,1,0,0:0:0:0:
64,192,68094,1,0,0:0:0:0:
320,192,68094,1,0,0:0:0:0:
192,192,68174,1,0,0:0:0:0:
448,192,68335,1,0,0:0:0:0:
320,192,68415,1,0,0:0:0:0:
192,192,68575,1,0,0:0:0:0:
448,192,68655,1,0,0:0:0:0:
320,192,68736,1,0,0:0:0:0:
192,192,68896,1,0,0:0:0:0:
448,192,68976,1,0,0:0:0:0:
320,192,69057,1,0,0:0:0:0:
64,192,69057,1,0,0:0:0:0:
320,192,69297,1,0,0:0:0:0:
192,192,69297,1,0,0:0:0:0:
64,192,69618,1,0,0:0:0:0:
448,192,69698,1,0,0:0:0:0:
64,192,69939,1,0,0:0:0:0:
320,192,69939,1,0,0:0:0:0:
192,192,70099,1,0,0:0:0:0:
320,192,70099,1,0,0:0:0:0:
448,192,70260,1,0,0:0:0:0:
192,192,70260,1,0,0:0:0:0:
320,192,70340,1,0,0:0:0:0:
448,192,70581,1,0,0:0:0:0:
192,192,70581,1,0,0:0:0:0:
320,192,70581,1,0,0:0:0:0:
448,192,70901,1,0,0:0:0:0:
64,192,70901,1,0,0:0:0:0:
320,192,70982,1,0,0:0:0:0:
64,192,71142,1,0,0:0:0:0:
320,192,71222,1,0,0:0:0:0:
192,192,71222,1,0,0:0:0:0:
448,192,71303,1,0,0:0:0:0:
64,192,71463,1,0,0:0:0:0:
320,192,71463,1,0,0:0:0:0:
192,192,71543,1,0,0:0:0:0:
448,192,71623,1,0,0:0:0:0:
320,192,71623,1,0,0:0:0:0:
192,192,71864,1,0,0:0:0:0:
448,192,71864,1,0,0:0:0:0:
320,192,71944,1,0,0:0:0:0:
448,192,72185,1,0,0:0:0:0:
64,192,72185,1,0,0:0:0:0:
320,192,72265,1,0,0:0:0:0:
64,192,72506,1,0,0:0:0:0:
320,192,72506,1,0,0:0:0:0:
192,192,72666,1,0,0:0:0:0:
448,192,72746,1,0,0:0:0:0:
192,192,72907,1,0,0:0:0:0:
320,192,72907,1,0,0:0:0:0:
448,192,73228,1,0,0:0:0:0:
64,192,73228,1,0,0:0:0:0:
320,192,73549,1,0,0:0:0:0:
192,192,73789,1,0,0:0:0:0:
448,192,73789,1,0,0:0:0:0:
320,192,73869,1,0,0:0:0:0:
192,192,74030,1,0,0:0:0:0:
64,192,74190,1,0,0:0:0:0:
320,192,74190,1,0,0:0:0:0:
448,192,74190,1,0,0:0:0:0:
192,192,74511,1,0,0:0:0:0:
320,192,74511,1,0,0:0:0:0:
64,192,74832,1,0,0:0:0:0:
448,192,74832,1,0,0:0:0:0:
320,192,75073,1,0,0:0:0:0:
192,192,75073,1,0,0:0:0:0:
64,192,75233,1,0,0:0:0:0:
448,192,75393,1,0,0:0:0:0:
192,192,75474,1,0,0:0:0:0:
448,192,75714,1,0,0:0:0:0:
192,192,75794,1,0,0:0:0:0:
320,192,75794,1,0,0:0:0:0:
448,192,76035,1,0,0:0:0:0:
192,192,76035,1,0,0:0:0:0:
320,192,76115,1,0,0:0:0:0:
64,192,76196,1,0,0:0:0:0:
448,192,76356,1,0,0:0:0:0:
192,192,76436,1,0,0:0:0:0:
320,192,76436,1,0,0:0:0:0:
64,192,76436,1,0,0:0:0:0:
192,192,76677,1,0,0:0:0:0:
448,192,76677,1,0,0:0:0:0:
320,192,76757,1,0,0:0:0:0:
64,192,76757,1,0,0:0:0:0:
192,192,76917,1,0,0:0:0:0:
448,192,76998,1,0,0:0:0:0:
64,192,77078,1,0,0:0:0:0:
320,192,77078,1,0,0:0:0:0:
192,192,77158,1,0,0:0:0:0:
448,192,77319,1,0,0:0:0:0:
64,192,77319,1,0,0:0:0:0:
320,192,77399,1,0,0:0:0:0:
192,192,77479,1,0,0:0:0:0:
64,192,77639,1,0,0:0:0:0:
448,192,77639,1,0,0:0:0:0:
320,192,77720,1,0,0:0:0:0:
192,192,77720,1,0,0:0:0:0:
64,192,77880,1,0,0:0:0:0:
448,192,77880,1,0,0:0:0:0:
320,192,77880,1,0,0:0:0:0:
192,192,77960,1,0,0:0:0:0:
448,192,78040,1,0,0:0:0:0:
64,192,78121,1,0,0:0:0:0:
320,192,78121,1,0,0:0:0:0:
192,192,78201,1,0,0:0:0:0:
448,192,78201,1,0,0:0:0:0:
64,192,78281,1,0,0:0:0:0:
192,192,78361,1,0,0:0:0:0:
448,192,78442,1,0,0:0:0:0:
64,192,78442,128,0,79645:0:0:0:0:
320,192,78682,1,0,0:0:0:0:
192,192,78762,1,0,0:0:0:0:
448,192,79003,1,0,0:0:0:0:
192,192,79003,1,0,0:0:0:0:
320,192,79163,1,0,0:0:0:0:
192,192,79244,1,0,0:0:0:0:
320,192,79324,1,0,0:0:0:0:
192,192,79404,1,0,0:0:0:0:
192,192,79645,1,0,0:0:0:0:
448,192,79645,128,0,80367:0:0:0:0:
320,192,79966,1,0,0:0:0:0:
192,192,80286,1,0,0:0:0:0:
320,192,80286,128,0,80607:0:0:0:0:
448,192,80607,128,0,80928:0:0:0:0:
192,192,80607,1,0,0:0:0:0:
192,192,80928,1,0,0:0:0:0:
320,192,80928,1,0,0:0:0:0:
320,192,81249,1,0,0:0:0:0:
64,192,81249,128,0,81570:0:0:0:0:
192,192,81570,1,0,0:0:0:0:
448,192,81570,1,0,0:0:0:0:
192,192,81891,1,0,0:0:0:0:
320,192,81891,128,0,82212:0:0:0:0:
192,192,82212,1,0,0:0:0:0:
448,192,82212,128,0,82853:0:0:0:0:
320,192,82853,128,0,83174:0:0:0:0:
192,192,82853,128,0,83174:0:0:0:0:
448,192,83174,128,0,83495:0:0:0:0:
64,192,83174,128,0,83495:0:0:0:0:
320,192,83495,128,0,84137:0:0:0:0:
192,192,83495,128,0,84137:0:0:0:0:
448,192,84137,128,0,84698:0:0:0:0:
64,192,84137,128,0,84698:0:0:0:0:
320,192,84698,128,0,85340:0:0:0:0:
192,192,84698,128,0,85340:0:0:0:0:
64,192,85340,1,0,0:0:0:0:
448,192,85340,128,0,85741:0:0:0:0:
192,192,85661,1,0,0:0:0:0:
320,192,85661,128,0,85982:0:0:0:0:
192,192,85982,128,0,86303:0:0:0:0:
448,192,86062,1,0,0:0:0:0:
320,192,86303,1,0,0:0:0:0:
64,192,86303,128,0,86623:0:0:0:0:
192,192,86543,1,0,0:0:0:0:
448,192,86623,1,0,0:0:0:0:
64,192,86704,1,0,0:0:0:0:
320,192,86704,1,0,0:0:0:0:
192,192,86864,1,0,0:0:0:0:
448,192,86864,1,0,0:0:0:0:
64,192,86944,1,0,0:0:0:0:
320,192,87024,1,0,0:0:0:0:
192,192,87185,1,0,0:0:0:0:
64,192,87185,128,0,89030:0:0:0:0:
448,192,87185,128,0,89030:0:0:0:0:
